Приват - клик по "человечку" слева от ника форумчанина. Паблик- стереть двоеточие (или символ @) ника юзера. Нарушения Правил Форума в чате запрещены. Есть тема "Политика. Новости, статьи, обсуждения " в разделе "Не политические Новости" - политику обсуждаем там.

Автор Тема: Колибри Драгоценные Посланники Цветов.  (Прочитано 746 раз)

Оффлайн ilya3711

  • VIP
  • Полковник
  • *

+Info

  • Репутация: 2147
  • Сообщений: 1855
  • Activity:
    0%
  • Благодарностей: +1558
  • Пол: Мужской


Подробный фильм о птичке - бабочке. Макросъемки отличного качества, много цветов, хорошая последовательная режиссура.

You are not allowed to view links. Register or Login
General
Unique ID                   : 286689773533353020442275216230665537966 (0xD7AE71244627BB9410C679EFD165C9AE)
Драгоценные Посланники Цветов.webm
Format                      : WebM
Format version              : Version 2
File size                   : 216 MiB
Duration                    : 52mn 48s
Overall bit rate mode       : Variable
Overall bit rate            : 572 Kbps
Writing application         : Google
Writing library             : Google

Video
ID                          : 1
Format                      : VP8
Codec ID                    : V_VP8
Duration                    : 52mn 48s
Bit rate                    : 413 Kbps
Width                       : 586 pixels
Height                      : 360 pixels
Display aspect ratio        : 16:10
Frame rate mode             : Constant
Frame rate                  : 25.000 fps
Compression mode            : Lossy
Bits/(Pixel*Frame)          : 0.078
Stream size                 : 156 MiB (72%)
Default                     : Yes
Forced                      : No

Audio
ID                          : 2
Format                      : Vorbis
Format settings, Floor      : 1
Codec ID                    : A_VORBIS
Duration                    : 52mn 48s
Bit rate mode               : Variable
Bit rate                    : 128 Kbps
Channel(s)                  : 2 channels
Sampling rate               : 44.1 KHz
Compression mode            : Lossy
Stream size                 : 48.4 MiB (22%)
Default                     : Yes
Forced                      : No
 



You are not allowed to view links. Register or Login
You are not allowed to view links. Register or Login


Золотой орден Орла Девятого ЛегионаЗолотой орден Орла Девятого ЛегионаЗолотой орден Орла Девятого ЛегионаЗолотой орден Орла Девятого ЛегионаЗолотой орден Орла Девятого ЛегионаЗолотой орден Орла Девятого ЛегионаЗолотой орден Орла Девятого ЛегионаЗолотой орден Орла Девятого Легиона

Оффлайн ilya3711

  • VIP
  • Полковник
  • *

+Info

  • Репутация: 2147
  • Сообщений: 1855
  • Activity:
    0%
  • Благодарностей: +1558
  • Пол: Мужской
Новая ссылка You are not allowed to view links. Register or Login


Золотой орден Орла Девятого ЛегионаЗолотой орден Орла Девятого ЛегионаЗолотой орден Орла Девятого ЛегионаЗолотой орден Орла Девятого ЛегионаЗолотой орден Орла Девятого ЛегионаЗолотой орден Орла Девятого ЛегионаЗолотой орден Орла Девятого ЛегионаЗолотой орден Орла Девятого Легиона

 

Похожие темы

  Тема / Автор Ответов Последний ответ
66 Ответов
7327 Просмотров
Последний ответ 24-04-2012, 23:27
от Лада
0 Ответов
656 Просмотров
Последний ответ 15-07-2013, 21:15
от Grafff
0 Ответов
619 Просмотров
Последний ответ 17-08-2013, 21:35
от Grafff
0 Ответов
598 Просмотров
Последний ответ 27-05-2014, 07:19
от Diktator
0 Ответов
327 Просмотров
Последний ответ 28-02-2015, 21:56
от Shehovtsova_Galina

Напоминаем, для того чтобы отслеживать изменения тем на форуме нужен валидный (работающий) е-майл в Вашем профиле + подписка на тему из свойств меню темы (Уведомлять -вкл.). НЕ рекомендуем пользоваться ящиками на Mail.ru (часто письмо просто не приходит). В случае попадания (проверяем) писем с форума в папку СПАМ (этим грешат некоторые сервисы) указываем майл клиенту или сервису - НЕ спам.